logo

The.Age.of.Adaline.2015.WEB-DL.XviD.MP3-RARBG

  • Category Movies
  • Type Divx/Xvid
  • Language English
  • Total size 1.3 GB
  • Uploaded By TeXTX
  • Downloads 298
  • Last checked 5 months ago
  • Date uploaded 3 years ago
  • Seeders 0
  • Leechers 0

Infohash : 349DE84BFA40D822B5D11CE8B9E5EF025C033877

The.Age.of.Adaline.2015.WEB-DL.XviD.MP3-RARBG

Screens:
Download The.Age.of.Adaline.2015.WEB-DL.XviD.MP3-RARBG Torrent
Download The.Age.of.Adaline.2015.WEB-DL.XviD.MP3-RARBG Torrent
Download The.Age.of.Adaline.2015.WEB-DL.XviD.MP3-RARBG Torrent
Download The.Age.of.Adaline.2015.WEB-DL.XviD.MP3-RARBG Torrent
Download The.Age.of.Adaline.2015.WEB-DL.XviD.MP3-RARBG Torrent
Download The.Age.of.Adaline.2015.WEB-DL.XviD.MP3-RARBG Torrent

Info:

[mediainfo]

Format : AVI
Format/Info : Audio Video Interleave
File size : 1.25 GiB
Duration : 1h 52mn
Overall bit rate : 1 590 Kbps
Movie name : RARBG.COM - The.Age.of.Adaline.2015.WEB-DL.XviD.MP3-RARBG
Writing library : VirtualDub build 35491/release
Comment : RARBG.COM - The.Age.of.Adaline.2015.WEB-DL.XviD.MP3-RARBG

Video
ID : 0
Format : MPEG-4 Visual
Format profile : [email protected]
Format settings, BVOP : No
Format settings, QPel : No
Format settings, GMC : No warppoints
Format settings, Matrix : Default (H.263)
Codec ID : XVID
Codec ID/Hint : XviD
Duration : 1h 52mn
Bit rate : 1 385 Kbps
Width : 720 pixels
Height : 304 pixels
Display aspect ratio : 2.40:1
Frame rate : 24.000 fps
Color space : YUV
Chroma subsampling : 4:2:0
Bit depth : 8 bits
Scan type : Progressive
Compression mode : Lossy
Bits/(Pixel*Frame) : 0.264
Stream size : 1.09 GiB (87%)
Writing library : Lavc56.13.100

Audio
ID : 1
Format : MPEG Audio
Format version : Version 1
Format profile : Layer 3
Mode : Joint stereo
Mode extension : MS Stereo
Codec ID : 55
Codec ID/Hint : MP3
Duration : 1h 52mn
Bit rate mode : Constant
Bit rate : 192 Kbps
Channel(s) : 2 channels
Sampling rate : 48.0 KHz
Compression mode : Lossy
Stream size : 155 MiB (12%)
Alignment : Aligned on interleaves
Interleave, duration : 24 ms (0.58 video frame)
Interleave, preload duration : 504 ms
Writing library : LAME3.99.5


[/mediainfo]

Notes:
Greetz to all! :)

Files:

  • RARBG.com.avi (1.1 MB)
  • RARBG.com.txt (0.0 KB)
  • The.Age.of.Adaline.2015.WEB-DL.XviD.MP3-RARBG.avi (1.3 GB)
  • The.Age.of.Adaline.2015.WEB-DL.XviD.MP3-RARBG.nfo (2.9 KB)

There are currently no comments. Feel free to leave one :)

Code:

  • http://tracker.trackerfix.com:80/announce
  • udp://9.rarbg.to:2710/announce
  • udp://9.rarbg.me:2710/announce
X
Attention! Use a VPN when Accessing Free Content !
Your IP address is - Country:
Your Internet provider Tracks your Activity! Hide your IP ADDRESS with a VPN!
Bonus: Get Lag-Free Streams & No popups with any VPN Purchased !

Download Here
Sitemap Sitemap