logo

Survivor.2015.720p.WEB-DL.DD5.1.H264-RARBG

  • Category Movies
  • Type HD
  • Language English
  • Total size 3.0 GB
  • Uploaded By TeXTX
  • Downloads 4356
  • Last checked 8 hours ago
  • Date uploaded 3 years ago
  • Seeders 1
  • Leechers 1

Survivor

ActionThriller

Milla Jovovich stars in 'Survivor', a thriller about a State Department employee newly posted to the American embassy in London, where she is charged with stopping terrorists from getting into the U.S. Putting her in the line of fire: targeted for death, framed for crimes she didn't commit, discredited and on the run. Now she must find a way to clear her name and stop a large-scale terrorist attack set for New Year's Eve in New York's Times Square.

Infohash : 2902C9821E674E8BDB23501DA94E9506F03BA624

Download Survivor.2015.720p.WEB-DL.DD5.1.H264-RARBG Torrent

Download Survivor.2015.720p.WEB-DL.DD5.1.H264-RARBG Torrent
Download Survivor.2015.720p.WEB-DL.DD5.1.H264-RARBG Torrent
Download Survivor.2015.720p.WEB-DL.DD5.1.H264-RARBG Torrent
Download Survivor.2015.720p.WEB-DL.DD5.1.H264-RARBG Torrent
Download Survivor.2015.720p.WEB-DL.DD5.1.H264-RARBG Torrent
Download Survivor.2015.720p.WEB-DL.DD5.1.H264-RARBG Torrent
Download Survivor.2015.720p.WEB-DL.DD5.1.H264-RARBG Torrent
Download Survivor.2015.720p.WEB-DL.DD5.1.H264-RARBG Torrent
Download Survivor.2015.720p.WEB-DL.DD5.1.H264-RARBG Torrent
Download Survivor.2015.720p.WEB-DL.DD5.1.H264-RARBG Torrent
Download Survivor.2015.720p.WEB-DL.DD5.1.H264-RARBG Torrent
Download Survivor.2015.720p.WEB-DL.DD5.1.H264-RARBG Torrent



[mediainfo]
Video
ID                                       : 1
Format                                   : AVC
Format/Info                              : Advanced Video Codec
Format profile                           : [email protected]
Format settings, CABAC                   : No
Format settings, ReFrames                : 2 frames
Codec ID                                 : V_MPEG4/ISO/AVC
Duration                                 : 1h 36mn
Bit rate                                 : 4 044 Kbps
Width                                    : 1 280 pixels
Height                                   : 534 pixels
Display aspect ratio                     : 2.40:1
Frame rate mode                          : Constant
Frame rate                               : 23.976 fps
Color space                              : YUV
Chroma subsampling                       : 4:2:0
Bit depth                                : 8 bits
Scan type                                : Progressive
Bits/(Pixel*Frame)                       : 0.247
Stream size                              : 2.72 GiB (90%)
Title                                    : Survivor.2015.720p.WEB-DL.DD5.1.H264-RARBG
Language                                 : English
Default                                  : Yes
Forced                                   : No
Color primaries                          : BT.709
Transfer characteristics                 : BT.709
Matrix coefficients                      : BT.709
Color range                              : Limited

Audio
ID                                       : 2
Format                                   : AC-3
Format/Info                              : Audio Coding 3
Mode extension                           : CM (complete main)
Format settings, Endianness              : Big
Codec ID                                 : A_AC3
Duration                                 : 1h 36mn
Bit rate mode                            : Constant
Bit rate                                 : 384 Kbps
Channel(s)                               : 6 channels
Channel positions                        : Front: L C R, Side: L R, LFE
Sampling rate                            : 48.0 KHz
Bit depth                                : 16 bits
Compression mode                         : Lossy
Stream size                              : 265 MiB (8%)
Title                                    : Survivor.2015.720p.WEB-DL.DD5.1.H264-RARBG
Language                                 : English
Default                                  : Yes
Forced                                   : No

Text
ID                                       : 3
Format                                   : UTF-8
Codec ID                                 : S_TEXT/UTF8
Codec ID/Info                            : UTF-8 Plain Text
Language                                 : English
Default                                  : Yes
Forced                                   : No

Menu
00:00:00.000                             : en:1
00:03:33.000                             : en:2
00:11:46.000                             : en:3
00:17:49.000                             : en:4
00:23:19.000                             : en:5
00:29:52.000                             : en:6
00:36:33.000                             : en:7
00:42:02.000                             : en:8
00:49:28.000                             : en:9
00:54:29.000                             : en:10
01:00:21.000                             : en:11
01:05:57.000                             : en:12
01:11:46.000                             : en:13
01:17:56.000                             : en:14
01:22:49.000                             : en:15
01:26:09.000                             : en:16



[/mediainfo]

Files:

  • English.srt (71.6 KB)
  • RARBG.com.mp4 (992.9 KB)
  • RARBG.com.txt (0.0 KB)
  • Survivor.2015.720p.WEB-DL.DD5.1.H264-RARBG.mkv (3.0 GB)
  • Survivor.2015.720p.WEB-DL.DD5.1.H264-RARBG.nfo (5.4 KB)

Comments

Code:

  • http://tracker.trackerfix.com:80/announce
  • udp://9.rarbg.me:2710/announce
  • udp://9.rarbg.to:2710/announce
X
Attention! Use a VPN when Accessing Free Content !
Your IP address is - Country:
Your Internet provider Tracks your Activity! Hide your IP ADDRESS with a VPN!
Bonus: Get Lag-Free Streams & No popups with any VPN Purchased !

Download Here
Sitemap Sitemap