logo

Paranormal Activity The Marked Ones 2014 EXTENDED Dual Audio Hind...

  • Category Movies
  • Type Dubs/Dual Audio
  • Language Hindi
  • Total size 1,011.5 MB
  • Uploaded By maher00
  • Downloads 706
  • Last checked 4 months ago
  • Date uploaded 1 year ago
  • Seeders 2
  • Leechers 0

Paranormal Activity: The Marked One...

HorrorThriller

Seventeen-year-old Jesse has been hearing terrifying sounds coming from his neighbor’s apartment, but when he turns on his camera and sets out to uncover their source, he encounters an ancient evil that won’t rest until it’s claimed his very soul.

Infohash : B36A21F04B2ADB9FEDEBB978F4B5C0048F0BEC00


Download Paranormal Activity The Marked Ones 2014 EXTENDED Dual Audio Hindi 720p BluRay x264 Torrent

Visit Site For Direct Link

mahermovies.usa.cc[size=17]

[size=17]mahersmovie.usa.cc


Download Paranormal Activity The Marked Ones 2014 EXTENDED Dual Audio Hindi 720p BluRay x264 Torrent

Paranormal Activity The Marked Ones 2014 EXTENDED Dual Audio Hindi 720p BluRay x264



Exclusive By -=AHMED MAHER=-

IMDB Link


Format                                   : Matroska
Format version                           : Version 4 / Version 2
File size                                : 988 MiB
Duration                                 : 1 h 41 min
Overall bit rate                         : 1 366 kb/s
Encoded date                             : UTC 2017-10-20 06:01:59
Writing application                      : mkvmerge v9.7.1 ('Pandemonium') 64bit
Writing library                          : libebml v1.3.4 + libmatroska v1.4.5

Video
ID                                       : 1
Format                                   : AVC
Format/Info                              : Advanced Video Codec
Format profile                           : [email protected]
Format settings, CABAC                   : Yes
Format settings, ReFrames                : 4 frames
Codec ID                                 : V_MPEG4/ISO/AVC
Duration                                 : 1 h 41 min
Bit rate                                 : 1 014 kb/s
Width                                    : 1 280 pixels
Height                                   : 720 pixels
Display aspect ratio                     : 16:9
Frame rate mode                          : Constant
Frame rate                               : 23.976 (24000/1001) FPS
Original frame rate                      : 23.976 (23976/1000) FPS
Color space                              : YUV
Chroma subsampling                       : 4:2:0
Bit depth                                : 8 bits
Scan type                                : Progressive
Bits/(Pixel*Frame)                       : 0.046
Stream size                              : 733 MiB (74%)
Writing library                          : x264 core 135 r2 f0c1c53
Encoding settings                        : cabac=1 / ref=4 / deblock=1:-1:-1 / analyse=0x3:0x133 / me=umh / subme=9 / psy=1 / psy_rd=1.00:0.15 / mixed_ref=1 / me_range=24 / chroma_me=1 / trellis=2 / 8x8dct=1 / cqm=0 / deadzone=21,11 / fast_pskip=0 / chroma_qp_offset=-3 / threads=36 / lookahead_threads=3 / sliced_threads=0 / nr=0 / decimate=1 / interlaced=0 / bluray_compat=0 / constrained_intra=0 / bframes=3 / b_pyramid=2 / b_adapt=2 / b_bias=0 / direct=3 / weightb=1 / open_gop=0 / weightp=2 / keyint=250 / keyint_min=23 / scenecut=40 / intra_refresh=0 / rc_lookahead=60 / rc=2pass / mbtree=1 / bitrate=1014 / ratetol=1.0 / qcomp=0.60 / qpmin=0 / qpmax=69 / qpstep=4 / cplxblur=20.0 / qblur=0.5 / vbv_maxrate=31250 / vbv_bufsize=31250 / nal_hrd=none / ip_ratio=1.40 / aq=1:1.00
Default                                  : Yes
Forced                                   : No
Color range                              : Limited
Color primaries                          : BT.709
Matrix coefficients                      : BT.709

Audio #1
ID                                       : 2
Format                                   : AAC
Format/Info                              : Advanced Audio Codec
Format profile                           : LC
Codec ID                                 : A_AAC
Duration                                 : 1 h 41 min
Bit rate                                 : 93.9 kb/s
Channel(s)                               : 2 channels
Channel positions                        : Front: L R
Sampling rate                            : 48.0 kHz
Frame rate                               : 46.875 FPS (1024 spf)
Compression mode                         : Lossy
Stream size                              : 67.9 MiB (7%)
Language                                 : English
Default                                  : No
Forced                                   : No

Audio #2
ID                                       : 3
Format                                   : MPEG Audio
Format version                           : Version 1
Format profile                           : Layer 3
Mode                                     : Joint stereo
Mode extension                           : MS Stereo
Codec ID                                 : A_MPEG/L3
Codec ID/Hint                            : MP3
Duration                                 : 1 h 41 min
Bit rate mode                            : Constant
Bit rate                                 : 256 kb/s
Channel(s)                               : 2 channels
Sampling rate                            : 44.1 kHz
Frame rate                               : 38.281 FPS (1152 spf)
Compression mode                         : Lossy
Stream size                              : 185 MiB (19%)
Title                                    : Sync By AHMED MAHER
Writing library                          : LAME3.98.2
Language                                 : Hindi
Default                                  : Yes
Forced                                   : Yes

SAMPLE included in Torrent

Sync By AHMED MAHER

Thanks ROHIT For Hindi Audio

Download Paranormal Activity The Marked Ones 2014 EXTENDED Dual Audio Hindi 720p BluRay x264 Torrent
Download Paranormal Activity The Marked Ones 2014 EXTENDED Dual Audio Hindi 720p BluRay x264 Torrent
Download Paranormal Activity The Marked Ones 2014 EXTENDED Dual Audio Hindi 720p BluRay x264 Torrent
Download Paranormal Activity The Marked Ones 2014 EXTENDED Dual Audio Hindi 720p BluRay x264 Torrent
Download Paranormal Activity The Marked Ones 2014 EXTENDED Dual Audio Hindi 720p BluRay x264 Torrent


Files:

Paranormal Activity The Marked Ones 2014 EXTENDED Dual Audio Hindi 720p BluRay x264
  • Sample Paranormal Activity The Marked Ones 2014 EXTENDED Dual Audio Hindi 720p BluRay x264.mkv (23.6 MB)
  • Paranormal Activity The Marked Ones 2014 EXTENDED Dual Audio Hindi 720p BluRay x264.mkv (987.9 MB)

There are currently no comments. Feel free to leave one :)

Code:

  • UDP://TRACKER.LEECHERS-PARADISE.ORG:6969/ANNOUNCE
X
Attention! Use a VPN when Accessing Free Content !
Your IP address is - Country:
Your Internet provider Tracks your Activity! Hide your IP ADDRESS with a VPN!
Bonus: Get Lag-Free Streams & No popups with any VPN Purchased !

Download Here
Sitemap Sitemap