logo

K.G.F: Chapter 1 (2018) Hindi (Cleaned) 720p pDVDRip x264 Mp3 - 1...

  • Category Movies
  • Type Dubs/Dual Audio
  • Language Hindi
  • Total size 1.4 GB
  • Uploaded By DESIRE123
  • Downloads 33864
  • Last checked 6 minutes ago
  • Date uploaded 3 days ago
  • Seeders 513
  • Leechers 373

Infohash : 6F302FA8D3D01935BB13FC765B3AD0B01FD1D019

K.G.F: Chapter 1 (2018) Hindi (Cleaned) 720p pDVDRip x264 Mp3 - 1.4 GB


EXUSIVE UPLOAD BY DesireMoVies.Men


K.G.F: Chapter 1


POSTER


Download K.G.F: Chapter 1 (2018) Hindi (Cleaned) 720p pDVDRip x264 Mp3 - 1.4 GB Torrent


INFO


General
Format : Matroska
Format version : Version 4
File size : 1.42 GiB
Duration : 2 h 30 min
Overall bit rate : 1 353 kb/s

Video
ID : 1
Format : AVC
Format/Info : Advanced Video Codec
Format profile : [email protected]
Format settings : CABAC / 4 Ref Frames
Format settings, CABAC : Yes
Format settings, ReFrames : 4 frames
Codec ID : V_MPEG4/ISO/AVC
Duration : 2 h 30 min
Bit rate : 1 226 kb/s
Width : 1 280 pixels
Height : 544 pixels
Display aspect ratio : 2.35:1
Frame rate mode : Constant
Frame rate : 23.976 (24000/1001) FPS
Color space : YUV
Chroma subsampling : 4:2:0
Bit depth : 8 bits
Scan type : Progressive
Bits/(Pixel*Frame) : 0.073
Stream size : 1.29 GiB (90%)
Default : Yes
Forced : No

Audio
ID : 2
Format : MPEG Audio
Format version : Version 1
Format profile : Layer 3
Format settings : Joint stereo / MS Stereo
Codec ID : A_MPEG/L3
Codec ID/Hint : MP3
Duration : 2 h 30 min
Bit rate mode : Constant
Bit rate : 128 kb/s
Channel(s) : 2 channels
Sampling rate : 44.1 kHz
Frame rate : 38.281 FPS (1152 SPF)
Compression mode : Lossy
Stream size : 138 MiB (9%)
Writing library : LAME3.98.2
Default : Yes
Forced : Yes


SCREENSHOT


Download K.G.F: Chapter 1 (2018) Hindi (Cleaned) 720p pDVDRip x264 Mp3 - 1.4 GB Torrent Download K.G.F: Chapter 1 (2018) Hindi (Cleaned) 720p pDVDRip x264 Mp3 - 1.4 GB Torrent Download K.G.F: Chapter 1 (2018) Hindi (Cleaned) 720p pDVDRip x264 Mp3 - 1.4 GB Torrent Download K.G.F: Chapter 1 (2018) Hindi (Cleaned) 720p pDVDRip x264 Mp3 - 1.4 GB Torrent Download K.G.F: Chapter 1 (2018) Hindi (Cleaned) 720p pDVDRip x264 Mp3 - 1.4 GB Torrent Download K.G.F: Chapter 1 (2018) Hindi (Cleaned) 720p pDVDRip x264 Mp3 - 1.4 GB Torrent Download K.G.F: Chapter 1 (2018) Hindi (Cleaned) 720p pDVDRip x264 Mp3 - 1.4 GB Torrent Download K.G.F: Chapter 1 (2018) Hindi (Cleaned) 720p pDVDRip x264 Mp3 - 1.4 GB Torrent Download K.G.F: Chapter 1 (2018) Hindi (Cleaned) 720p pDVDRip x264 Mp3 - 1.4 GB Torrent Download K.G.F: Chapter 1 (2018) Hindi (Cleaned) 720p pDVDRip x264 Mp3 - 1.4 GB Torrent Download K.G.F: Chapter 1 (2018) Hindi (Cleaned) 720p pDVDRip x264 Mp3 - 1.4 GB Torrent


Keep Visit DesireMoVies.trade For More Exusive MoVies


Files:

K.G.F Chapter 1 (2018) Hindi (Cleaned) 720p pDVDRip x264 Mp3
  • SAM.mkv (11.1 MB)
  • K.G.F Chapter 1 (2018) Hindi (Cleaned) 720p pDVDRip x264 Mp3 DesireMovies.icu.mkv (1.4 GB)

Comments

Code:

  • udp://tracker.coppersurfer.tk:6969/announce
  • udp://tracker.pirateparty.gr:6969/announce
  • udp://tracker.coppersurfer.tk:6969/announce
  • udp://tracker.tiny-vps.com:6969/announce
  • udp://9.rarbg.me:2740/announce
  • udp://9.rarbg.to:2790/announce
  • udp://public.popcorn-tracker.org:6969/announce
  • udp://tracker.vanitycore.co:6969/announce
  • udp://tracker.opentrackr.org:1337/announce
  • udp://open.stealth.si:80/announce

X
Attention! Use a VPN when Accessing Free Content !
Your IP address is - Country:
Your Internet provider Tracks your Activity! Hide your IP ADDRESS with a VPN!
Bonus: Get Lag-Free Streams & No popups with any VPN Purchased !

Download Here
Sitemap Sitemap